<?xml version="1.0" standalone="no"?>
<!DOCTYPE svg PUBLIC "-//W3C//DTD SVG 1.1//EN" "http://www.w3.org/Graphics/SVG/1.1/DTD/svg11.dtd" >
<svg xmlns="http://www.w3.org/2000/svg">
  <metadata>Created by iconfont</metadata>
  <defs>
  <font id="iconfont" horiz-adv-x="1024">
    <font-face
      font-family="iconfont"
      font-weight="400"
      font-stretch="normal"
      units-per-em="1024"
      ascent="896"
      descent="-128"
    />
      <missing-glyph />
      
      <glyph glyph-name="anquan1" unicode="&#58993;" d="M885.851105 730.277608c-0.926092 9.363252-6.532787 17.638729-14.861476 21.99392-97.770767 51.061956-212.090443 76.865645-339.691609 76.865645-6.532787 0-12.901845-0.217964-19.326161-0.326435l0-0.10847c-6.423293 0.217964-12.738116 0.435928-19.270902 0.435928-127.60219 0-241.921865-25.91216-339.691609-76.865645-8.329712-4.355191-13.936407-12.630668-14.861476-22.102391-1.305739-14.045901-32.335453-346.987782 26.892487-524.781094 1.143033-5.008061 45.89119-167.559227 346.985736-266.527263l0 0c301.042357 98.968036 345.789491 261.519202 346.932524 266.527263C918.186558 383.182378 887.156844 716.12426 885.851105 730.277608zM805.500079 221.06714c-0.435928-1.415232-40.501436-134.134976-293.529243-223.085868l0 0c-252.971525 88.842421-293.038056 221.562165-293.473985 223.085868-49.211818 147.744949-31.464619 421.349397-26.130124 488.633826 86.774319 42.243103 187.701986 63.692624 300.333206 63.692624 6.531763 0 12.846586-0.544399 19.270902-0.653893l0 0 0 0 0.054235 0 0 0c6.478552 0.217964 12.794397 0.653893 19.271926 0.653893 112.63122 0 213.55991-21.449521 300.333206-63.692624C836.965721 642.416538 854.712921 368.92056 805.500079 221.06714zM681.164283 575.022615 446.048427 340.285383 342.942141 443.935044c-10.886955 10.996448-28.579919 10.887978-39.413662 0.109494-10.94119-10.887978-10.94119-28.526707-0.107447-39.413662l119.000278-119.5457c3.538593-3.592828 7.838525-5.552459 12.302187-6.750751 4.082992-2.176572 8.438183-3.701299 12.901845-3.701299 7.131421 0 14.262842 2.721994 19.706831 8.16496L720.577944 535.608953c10.886955 10.778484 10.886955 28.525684 0 39.413662C709.689966 585.909569 692.051237 585.909569 681.164283 575.022615z"  horiz-adv-x="1024" />
      
      <glyph glyph-name="lianxiren" unicode="&#58908;" d="M767.1 388.5c58.6 18.3 101.3 73 101.3 137.6 0 79.5-64.6 144.1-144.1 144.1s-144.1-64.6-144.1-144.1c0-64.4 42.5-119.1 101-137.5-16-2.9-31.8-7.4-47.3-13.5-0.1-0.1-0.3-0.1-0.4-0.1-0.1 0-0.1 0-0.2-0.1l-10-4 1.2-2.7c-3.9-4.4-6.4-9.9-6.4-16.1 0-1.7 0.7-3.2 1-4.8-55.5 57.4-124.5 95.5-200 105.7 79.3 19 138.5 90.2 138.5 175.3 0 99.4-80.9 180.3-180.4 180.3s-180.4-80.9-180.4-180.3c0-85.2 59.4-156.5 138.9-175.4C147.1 427 0 227.9 0-13.1c0-16.1 13.1-29.2 29.2-29.2s29.2 13.1 29.2 29.2c0 226.4 143.3 410.6 319.4 410.6S697 213.4 697-13.1c0-16.1 13.1-29.2 29.2-29.2s29.2 13.1 29.2 29.2c0 134.5-45.9 255.8-119.2 341.4 2.2-0.7 4.5-1.3 6.8-1.4l0.8-1.9 9.1 3.5c23.4 9.1 47.5 13.7 71.7 13.7 137.3 0 249.1-143.9 249.1-320.9 0-13.9 11.3-25.2 25.1-25.2 13.9 0 25.1 11.3 25.1 25.2 0.1 187-111.8 341.5-256.8 367.2zM255.2 628.3c0 67.3 54.7 122 122 122s122-54.7 122-122-54.7-122-122-122-122 54.8-122 122zM818 526.1c0-51.7-42.1-93.8-93.8-93.8s-93.8 42.1-93.8 93.8 42.1 93.8 93.8 93.8 93.8-42.1 93.8-93.8z"  horiz-adv-x="1024" />
      
      <glyph glyph-name="qianbao" unicode="&#58899;" d="M920.8832-7.799467H279.773867A178.090667 178.090667 0 0 0 101.6832 170.2912V597.7088A178.090667 178.090667 0 0 0 279.773867 775.799467h641.109333a178.090667 178.090667 0 0 0 178.090667-178.090667v-427.4176a178.090667 178.090667 0 0 0-178.090667-178.090667zM315.392 98.986667h569.873067a106.8544 106.8544 0 0 1 106.8544 106.8544V455.236267H208.5376v-249.326934A106.8544 106.8544 0 0 1 315.392 98.986667z m569.873067 570.026666H315.392a106.8544 106.8544 0 0 1-106.8544-106.8544h783.581867a106.8544 106.8544 0 0 1-106.8544 106.8544zM687.1552 312.763733h146.926933a51.2 51.2 0 0 0 51.2-51.2v-4.4544a51.2 51.2 0 0 0-51.2-51.2h-146.926933a51.2 51.2 0 0 0-51.2 51.2v4.4544a51.2 51.2 0 0 0 51.2 51.2z"  horiz-adv-x="1194" />
      
      <glyph glyph-name="zhuyi" unicode="&#58890;" d="M511.87 782.01c54.03 0 106.41-10.57 155.67-31.4 47.62-20.14 90.41-49 127.17-85.76 36.76-36.76 65.61-79.55 85.76-127.17 20.84-49.26 31.4-101.64 31.4-155.67s-10.57-106.41-31.4-155.67c-20.14-47.62-48.99-90.41-85.76-127.17-36.76-36.76-79.55-65.61-127.17-85.76-49.26-20.84-101.64-31.4-155.67-31.4s-106.41 10.57-155.67 31.4c-47.62 20.14-90.41 48.99-127.17 85.76-36.76 36.76-65.61 79.55-85.76 127.17-20.84 49.26-31.4 101.64-31.4 155.67s10.57 106.41 31.4 155.67c20.14 47.62 49 90.41 85.76 127.17 36.76 36.76 79.55 65.61 127.17 85.76 49.26 20.84 101.63 31.4 155.67 31.4m0 80c-265.1 0-480-214.9-480-480s214.9-480 480-480 480 214.9 480 480-214.91 480-480 480zM512.47 249.44c-20.33 0-36.8 15.55-36.8 34.73 0 0-22.66 249.86-22.69 333.45-0.01 24.73 26.64 41.73 59.5 41.73 30.66 0 58.29-15.52 58.29-41.01 0-84.94-21.49-334.17-21.49-334.17-0.01-19.18-16.49-34.73-36.81-34.73zM511.6 154.68m-50 0a50 50 0 1 1 100 0 50 50 0 1 1-100 0Z"  horiz-adv-x="1024" />
      
      <glyph glyph-name="paixu1" unicode="&#60047;" d="M1009.103451 662.618806a52.731447 52.731447 0 0 0 0-73.260874 49.762104 49.762104 0 0 0-71.520225 0l-128.705687 131.777422V182.250682a50.939602 50.939602 0 0 0 2.815756-16.740955v-6.194665c0-158.706297-128.91047-287.309594-287.872744-287.309594a51.19558 51.19558 0 1 0 0 102.339964c102.391159 0 185.327999 82.783252 185.327998 184.96963v6.194665c0 5.887492 1.023912 11.519005 2.815757 16.740955V829.055636a52.731447 52.731447 0 0 0 12.645308 51.707536 49.762104 49.762104 0 0 0 71.571421 0l212.973612-218.09317zM235.999001 607.941927v-6.194665c0-5.887492 1.023912-11.519005 2.815757-16.740955V46.070439L86.405517 202.216958a49.762104 49.762104 0 0 1-71.520225 0 52.731447 52.731447 0 0 1 0-73.312071l212.922416-218.093169c4.86358-5.017167 10.495094-8.754444 16.484977-11.263028A48.226236 48.226236 0 0 1 287.245777-127.994532c26.724093 0 48.431018 22.884424 48.431018 51.19558V584.955112a50.990797 50.990797 0 0 1 2.815757 16.740954v6.194666a185.174412 185.174412 0 0 0 185.327999 184.969629 51.19558 51.19558 0 1 1 0 102.39116 287.565571 287.565571 0 0 1-287.872745-287.360789z"  horiz-adv-x="1024" />
      
      <glyph glyph-name="paixu" unicode="&#58903;" d="M428.6-28.2L96 276.5l67.8 74L328.2 200V785.7h100.4zM695.8-17.7H595.4V796.2L928 491.5l-67.8-74L695.8 568z"  horiz-adv-x="1024" />
      
      <glyph glyph-name="sort-full" unicode="&#59979;" d="M719.8 416H304.2c-49.5 0-80.3 53.9-55.1 96.5l207.8 352C469.3 885.5 490.7 896 512 896s42.7-10.5 55.1-31.5l207.8-351.9c25.2-42.7-5.5-96.6-55.1-96.6zM774.9 255.5l-207.8-352c-12.4-21-33.8-31.5-55.1-31.5s-42.7 10.5-55.1 31.5l-207.8 352c-25.2 42.7 5.6 96.5 55.1 96.5h415.6c49.6 0 80.3-53.9 55.1-96.5z"  horiz-adv-x="1024" />
      
      <glyph glyph-name="kongxinwenhao" unicode="&#60697;" d="M512-96C246.912-96 32 118.912 32 384 32 649.088 246.912 864 512 864c265.088 0 480-214.912 480-480 0-265.088-214.912-480-480-480z m0 64c229.76 0 416 186.24 416 416S741.76 800 512 800 96 613.76 96 384s186.24-416 416-416zM552 294.304v-22.432h-80v22.432c0 51.296 24.192 99.808 58.816 136.704 26.464 28.224 25.728 27.424 33.28 36.384 19.968 23.776 27.904 40.768 27.904 60.608a80 80 0 1 1-160 0H352a160 160 0 0 0 320 0c0-41.664-15.68-75.2-46.656-112.064-5.216-6.208-10.88-12.576-17.856-20.096-2.688-2.88-5.44-5.888-9.152-9.792l-9.152-9.76c-21.952-23.36-37.184-53.92-37.184-81.984zM545.856 178.016c9.44-9.312 14.144-20.672 14.144-34.016 0-13.6-4.704-24.992-14.144-34.208A46.784 46.784 0 0 0 512 96c-13.12 0-24.448 4.608-33.856 13.792A45.856 45.856 0 0 0 464 144c0 13.344 4.704 24.704 14.144 34.016A46.464 46.464 0 0 0 512 192c13.12 0 24.448-4.672 33.856-13.984z"  horiz-adv-x="1024" />
      
      <glyph glyph-name="fuzhi_o" unicode="&#60238;" d="M725.333333 554.666667h128v-512H341.333333v128H213.333333V682.666667h512v-128z m0-42.666667v-341.333333H384v-85.333334h426.666667V512h-85.333334zM256 640v-426.666667h426.666667V640H256z"  horiz-adv-x="1024" />
      
      <glyph glyph-name="fuzhi" unicode="&#58958;" d="M746 734.4c0-14.8-9.9-24.7-24.7-24.7-14.8 0-24.7 9.9-24.7 24.7v32.2c0 42-32.2 74.2-74.2 74.2H127.7c-42 0-74.2-32.2-74.2-74.2V272c0-42 32.2-74.2 74.2-74.2h39.6c14.8 0 24.7-9.9 24.7-24.7 0-14.8-9.9-24.7-24.7-24.7h-39.6C58.4 148.3 4 202.7 4 272V766.6C4 835.8 58.4 890.3 127.7 890.3h494.6C691.5 890.3 746 835.8 746 766.6v-32.2z m272-549c0-14.8-9.9-24.7-24.7-24.7-14.8 0-24.7 9.9-24.7 24.7V494.5c0 42-32.2 74.2-74.2 74.2H399.7c-42 0-74.2-32.2-74.2-74.2v-494.6c0-42 32.2-74.2 74.2-74.2h494.6c42 0 74.2 32.2 74.2 74.2v54.4c0 14.8 9.9 24.7 24.7 24.7 14.8 0 24.7-9.9 24.7-24.7v-54.4c0-69.2-54.4-123.7-123.7-123.7H399.7c-69.2 0-123.7 54.4-123.7 123.7V494.5c0 69.2 54.4 123.7 123.7 123.7h494.6c69.2 0 123.7-54.4 123.7-123.7v-309.1z"  horiz-adv-x="1024" />
      
      <glyph glyph-name="fuzhi1" unicode="&#59568;" d="M394.666667 789.333333h448a74.666667 74.666667 0 0 0 74.666666-74.666666v-448a74.666667 74.666667 0 0 0-74.666666-74.666667H394.666667a74.666667 74.666667 0 0 0-74.666667 74.666667V714.666667a74.666667 74.666667 0 0 0 74.666667 74.666666z m0-64a10.666667 10.666667 0 0 1-10.666667-10.666666v-448a10.666667 10.666667 0 0 1 10.666667-10.666667h448a10.666667 10.666667 0 0 1 10.666666 10.666667V714.666667a10.666667 10.666667 0 0 1-10.666666 10.666666H394.666667z m245.333333-597.333333a32 32 0 0 0 64 0v-74.666667a74.666667 74.666667 0 0 0-74.666667-74.666666H181.333333a74.666667 74.666667 0 0 0-74.666666 74.666666V501.333333a74.666667 74.666667 0 0 0 74.666666 74.666667h74.666667a32 32 0 0 0 0-64h-74.666667a10.666667 10.666667 0 0 1-10.666666-10.666667v-448a10.666667 10.666667 0 0 1 10.666666-10.666666h448a10.666667 10.666667 0 0 1 10.666667 10.666666v74.666667z"  horiz-adv-x="1024" />
      
      <glyph glyph-name="guanbi" unicode="&#59469;" d="M512-33.959184c-230.4 0-417.959184 187.559184-417.959184 417.959184s187.559184 417.959184 417.959184 417.959184 417.959184-187.559184 417.959184-417.959184-187.559184-417.959184-417.959184-417.959184z m0 794.122449c-207.412245 0-376.163265-168.75102-376.163265-376.163265s168.75102-376.163265 376.163265-376.163265 376.163265 168.75102 376.163265 376.163265-168.75102 376.163265-376.163265 376.163265zM355.265306 206.367347c-5.22449 0-10.44898 2.089796-14.628571 6.269388-8.359184 8.359184-8.359184 21.420408 0 29.779592l313.469387 313.469387c8.359184 8.359184 21.420408 8.359184 29.779592 0 8.359184-8.359184 8.359184-21.420408 0-29.779592l-313.469387-313.469387c-4.702041-4.179592-9.926531-6.269388-15.151021-6.269388zM668.734694 206.367347c-5.22449 0-10.44898 2.089796-14.628572 6.269388l-313.469387 313.469387c-8.359184 8.359184-8.359184 21.420408 0 29.779592 8.359184 8.359184 21.420408 8.359184 29.779592 0l313.469387-313.469387c8.359184-8.359184 8.359184-21.420408 0-29.779592-4.702041-4.179592-9.926531-6.269388-15.15102-6.269388z"  horiz-adv-x="1024" />
      
      <glyph glyph-name="guanbi1" unicode="&#58991;" d="M555.6 384l258 258c12 12 12 31.6 0 43.6s-31.6 12-43.6 0L512 427.6 254 685.2c-12 12-31.6 12-43.6 0s-12-31.6 0-43.6l258-258-258-258c-12-12-12-31.6 0-43.6 6-6 14-9.2 21.6-9.2s15.6 3.2 21.6 9.2l258 258 258-258c6-6 14-9.2 21.6-9.2s15.6 3.2 21.6 9.2c12 12 12 31.6 0 43.6L555.6 384z"  horiz-adv-x="1024" />
      
      <glyph glyph-name="guanbi2" unicode="&#58910;" d="M0 896h1024v-1024H0zM240.448 728l2.346667-2.154667 289.92-289.941333 279.253333 279.253333a42.666667 42.666667 0 0 0 62.506667-58.026666l-2.133334-2.346667-279.296-279.210667 279.274667-279.253333a42.666667 42.666667 0 0 0-58.005333-62.528l-2.346667 2.176-279.253333 279.253333-289.92-289.962666a42.666667 42.666667 0 0 0-62.506667 58.005333l2.154667 2.346667 289.941333 289.962666-289.92 289.92a42.666667 42.666667 0 0 0 57.984 62.506667z"  horiz-adv-x="1024" />
      
      <glyph glyph-name="youjiantou" unicode="&#58916;" d="M885.113 406.627L628.338 663.401c-12.496 12.497-32.758 12.497-45.254 0-12.497-12.497-12.497-32.758 0-45.255l203.3-203.3H158.025c-17.036 0-30.846-13.811-30.846-30.846 0-17.036 13.811-30.846 30.846-30.846h628.36L583.084 149.853c-12.497-12.496-12.497-32.758 0-45.255 6.248-6.248 14.438-9.372 22.627-9.372s16.379 3.124 22.627 9.372l256.775 256.775a31.999 31.999 0 0 1 0 45.254z"  horiz-adv-x="1024" />
      
      <glyph glyph-name="hengxiandianzuo" unicode="&#58889;" d="M69.12 394.24h833.536v-20.992H69.12zM850.432 384a52.224 52.224 0 1 1 104.448 0 52.224 52.224 0 1 1-104.448 0z"  horiz-adv-x="1024" />
      
      <glyph glyph-name="youjiantou1" unicode="&#60985;" d="M581.632 114.176L802.816 332.8H99.328a51.2 51.2 0 0 0 0 102.4h703.488l-221.184 218.624a51.2 51.2 0 0 0 0 72.192 46.592 46.592 0 0 0 68.096 0l310.272-307.2a55.296 55.296 0 0 0 0-74.752l-310.272-307.2a46.592 46.592 0 0 0-68.096 0 51.2 51.2 0 0 0 0 77.312z"  horiz-adv-x="1024" />
      
      <glyph glyph-name="sanhengxian-copy" unicode="&#58885;" d="M941.056 383.8293334m-82.944 0a82.944 82.944 0 1 1 165.888 0 82.944 82.944 0 1 1-165.888 0ZM684.032 330.0693334H53.76C24.064 330.0693334 0 354.13333339999997 0 383.8293334S24.064 437.5893334 53.76 437.5893334h630.272c29.696 0 53.76-24.064 53.76-53.76s-24.064-53.76-53.76-53.76zM941.056 382.1226666m-82.944 0a82.944 82.944 0 1 1 165.888 0 82.944 82.944 0 1 1-165.888 0ZM684.032 328.3626666H53.76c-29.696 0-53.76 24.064-53.76 53.76s24.064 53.76 53.76 53.76h630.272c29.696 0 53.76-24.064 53.76-53.76s-24.064-53.76-53.76-53.76zM941.056 385.536m-82.944 0a82.944 82.944 0 1 1 165.888 0 82.944 82.944 0 1 1-165.888 0ZM684.032 331.77599999999995H53.76C24.064 331.77599999999995 0 355.84000000000003 0 385.536s24.064 53.76 53.76 53.76h630.272c29.696 0 53.76-24.064 53.76-53.76s-24.064-53.76-53.76-53.76z"  horiz-adv-x="1024" />
      
      <glyph glyph-name="hengxian11" unicode="&#58886;" d="M1e-8-127.99999998999999l25599.48799999 511.99999999L1e-8 895.99999999z"  horiz-adv-x="25600" />
      
      <glyph glyph-name="icon-prev" unicode="&#58883;" d="M265.3333332 330.66666709000003l376.6666667-376.6666667c26.6666669-26.6666669 69.99999961-26.6666669 93.33333369 0 26.6666669 26.6666669 26.6666669 69.99999961 0 93.33333281l-330.00000029 330.00000029 330.00000029 329.99999942c26.6666669 26.6666669 26.6666669 66.6666668 0 93.33333369s-69.99999961 26.6666669-93.33333369 0L265.3333332 423.9999999c-13.33333301-13.33333301-20.00000039-29.99999971-19.99999951-46.66666641 0-16.6666667 6.66666651-33.33333339 19.99999951-46.6666664"  horiz-adv-x="1024" />
      
      <glyph glyph-name="zuoyoujiantou1" unicode="&#58884;" d="M608.30661219 384.54132187l-378.03491532 378.03491531a59.39007656 59.39007656 0 1 0 84.02107594 84.02107688L734.3382275 426.49193062a59.39007656 59.39007656 0 0 0 0-83.90121749L314.23284406-77.51467031000004a59.39007656 59.39007656 0 1 0-83.90121844 84.02107687L608.2466825 384.54132187z"  horiz-adv-x="1024" />
      
      <glyph glyph-name="shouji" unicode="&#59026;" d="M798.723234 721.217255c0 60.576657-49.106418 109.683075-109.683075 109.683075l-354.708628 0c-60.576657 0-109.683075-49.106418-109.683075-109.683075l0-673.980161c0-60.576657 49.106418-109.683075 109.683075-109.683075l354.708628 0c60.576657 0 109.683075 49.106418 109.683075 109.683075L798.723234 721.217255zM264.557398 658.984888l494.256894 0 0-529.049305-494.256894 0L264.557398 658.984888zM334.356091 790.991388 689.016623 790.991388c38.548968 0 69.798692-31.249725 69.798692-69.798692l0-22.298865-494.256894 0 0 22.298865C264.557398 759.74064 295.807123 790.991388 334.356091 790.991388zM689.016623-22.53704 334.356091-22.53704c-38.548968 0-69.798692 31.249725-69.798692 69.798692l0 43.788296 494.256894 0 0-43.788296C758.814292 8.712685 727.564567-22.53704 689.016623-22.53704zM513.173732 66.056718c-16.70752 0-30.30112-13.5936-30.30112-30.30112 0-16.70752 13.5936-30.30112 30.30112-30.30112s30.299073 13.5936 30.299073 30.30112C543.472805 52.463118 529.881253 66.056718 513.173732 66.056718z"  horiz-adv-x="1024" />
      
      <glyph glyph-name="youxiang" unicode="&#59656;" d="M838.954667 661.333333H170.666667c-3.626667 0-7.168-0.448-10.56-1.322666l323.690666-323.669334a21.333333 21.333333 0 0 1 30.165334 0L838.954667 661.333333z m46.144-14.186666l-260.693334-260.693334 262.933334-262.912c5.44 7.168 8.661333 16.106667 8.661333 25.792V618.666667c0 10.944-4.117333 20.906667-10.88 28.48zM843.861333 106.666667l-249.6 249.621333-50.133333-50.133333a64 64 0 0 0-90.517333 0l-50.112 50.133333L156.373333 109.12c4.48-1.578667 9.28-2.453333 14.314667-2.453333h673.194667zM128.661333 141.781333L373.333333 386.474667 129.578667 630.186667A42.709333 42.709333 0 0 1 128 618.666667v-469.333334c0-2.56 0.213333-5.098667 0.661333-7.552zM170.666667 704h682.666666a85.333333 85.333333 0 0 0 85.333334-85.333333v-469.333334a85.333333 85.333333 0 0 0-85.333334-85.333333H170.666667a85.333333 85.333333 0 0 0-85.333334 85.333333V618.666667a85.333333 85.333333 0 0 0 85.333334 85.333333z"  horiz-adv-x="1024" />
      
      <glyph glyph-name="shouji1" unicode="&#59475;" d="M736.653061-33.959184H287.346939c-45.97551 0-83.591837 37.616327-83.591837 83.591837V718.367347c0 45.97551 37.616327 83.591837 83.591837 83.591837h449.306122c45.97551 0 83.591837-37.616327 83.591837-83.591837v-668.734694c0-45.97551-37.616327-83.591837-83.591837-83.591837zM287.346939 760.163265c-22.987755 0-41.795918-18.808163-41.795919-41.795918v-668.734694c0-22.987755 18.808163-41.795918 41.795919-41.795918h449.306122c22.987755 0 41.795918 18.808163 41.795919 41.795918V718.367347c0 22.987755-18.808163 41.795918-41.795919 41.795918H287.346939zM616.489796 80.979592H407.510204c-11.493878 0-20.897959 9.404082-20.897959 20.897959s9.404082 20.897959 20.897959 20.897959h208.979592c11.493878 0 20.897959-9.404082 20.897959-20.897959s-9.404082-20.897959-20.897959-20.897959z"  horiz-adv-x="1024" />
      
      <glyph glyph-name="yonghu" unicode="&#58983;" d="M882.8-7.5C881.4 152.3 780 287 638.6 340.4c82 43.7 138.1 129.5 138.1 229.1 0 144.2-116.9 261.1-261.1 261.2v0.1c-1.7 0-3.3-0.2-4.9-0.2-1.7 0-3.3 0.2-4.9 0.2l-0.1-0.1c-144.2-0.1-261.1-117-261.1-261.2 0-99.6 56-185.4 138.1-229.1C241.1 287 139.8 152.3 138.3-7.5v-5.2c0.2-9.3 2.1-18.1 2.8-27.4h0.6c1.5-14.4 13.7-25.4 28.2-25.4s26.7 11 28.2 25.4h0.9c-0.8 9.8-2.9 19.2-2.9 29.1 0 84.7 33.6 165.9 93.5 225.8 58.7 58.7 138 92 220.9 93.3 82.9-1.3 162.2-34.5 220.9-93.3 60-59.9 93.6-141.1 93.6-225.8 0-9.9-2-19.3-2.9-29.1h0.9c1.5-14.4 13.7-25.4 28.2-25.4s26.7 11 28.2 25.4h0.6c0.7 9.3 2.6 18.1 2.8 27.4v5.2z m-570.5 577c0 110.6 88.4 200.4 198.3 203 109.9-2.7 198.3-92.4 198.3-203s-88.4-200.4-198.3-203c-110 2.7-198.3 92.4-198.3 203z"  horiz-adv-x="1024" />
      
      <glyph glyph-name="anquanzu" unicode="&#58964;" d="M787.2 448 704 448 704 646.4C704 793.6 652.8 896 512 896 377.6 896 320 793.6 320 646.4L320 448 236.8 448C211.2 448 192 428.8 192 403.2l0-486.4C192-108.8 211.2-128 236.8-128l550.4 0c25.6 0 44.8 19.2 44.8 44.8L832 403.2C832 428.8 812.8 448 787.2 448zM384 640c0 108.8 38.4 185.6 128 185.6 89.6 0 128-76.8 128-185.6l0-192L384 448 384 640zM576 64 512 64 448 64l19.2 121.6c-12.8 12.8-25.6 32-25.6 51.2 0 38.4 32 70.4 70.4 70.4 38.4 0 70.4-32 70.4-70.4 0-19.2-12.8-38.4-25.6-51.2L576 64z"  horiz-adv-x="1024" />
      
      <glyph glyph-name="duigou" unicode="&#58919;" d="M512 896C228.430769 896 0 667.569231 0 384s228.430769-512 512-512 512 228.430769 512 512S795.569231 896 512 896z m0-945.230769C271.753846-49.230769 78.769231 143.753846 78.769231 384S271.753846 817.230769 512 817.230769s433.230769-192.984615 433.230769-433.230769-192.984615-433.230769-433.230769-433.230769zM716.8 565.169231l-208.738462-248.123077c-15.753846-15.753846-43.323077-19.692308-59.076923-7.876923L299.323077 423.384615c-15.753846 11.815385-43.323077 7.876923-55.138462-7.876923-11.815385-15.753846-7.876923-43.323077 7.876923-55.138461l149.661539-114.215385c19.692308-15.753846 47.261538-23.630769 74.830769-23.630769 35.446154 0 70.892308 15.753846 94.523077 43.323077l208.738462 248.123077c15.753846 15.753846 11.815385 43.323077-3.938462 55.138461-19.692308 15.753846-43.323077 15.753846-59.076923-3.938461z"  horiz-adv-x="1024" />
      
      <glyph glyph-name="anquan-" unicode="&#58944;" d="M900.8-124H123.2c-8.8 0-16 7.2-16 16V407.2c0 8.8 7.2 16 16 16h777.6c8.8 0 16-7.2 16-16v-515.2c0-8.8-7.2-16-16-16z m-761.6 32h745.6V391.2H139.2v-483.2zM786.4 391.2H237.6c-8.8 0-16 7.2-16 16V601.6C221.6 761.6 352 892 512 892c160 0 290.4-130.4 290.4-290.4v-194.4c0-8.8-7.2-16-16-16z m-532.8 32h516.8V601.6C770.4 744 654.4 860 512 860 369.6 860 253.6 744 253.6 601.6v-178.4zM900.8 281.6h-144c-4.8 0-8 3.2-8 8s3.2 8 8 8h144c4.8 0 8-3.2 8-8 0-4-4-8-8-8zM900.8 175.2h-144c-4.8 0-8 3.2-8 8s3.2 8 8 8h144c4.8 0 8-3.2 8-8 0-4-4-8-8-8zM900.8 175.2h-144c-4.8 0-8 3.2-8 8s3.2 8 8 8h144c4.8 0 8-3.2 8-8 0-4-4-8-8-8zM900.8 68.8h-144c-4.8 0-8 3.2-8 8s3.2 8 8 8h144c4.8 0 8-3.2 8-8s-4-8-8-8z"  horiz-adv-x="1024" />
      
      <glyph glyph-name="shanchuzhanghu" unicode="&#59124;" d="M480 842.666667c141.376 0 256-114.624 256-256 0-91.349333-47.850667-171.52-119.872-216.832l4.096-1.578667a384.149333 384.149333 0 0 0 120.085333-75.285333 211.306667 211.306667 0 0 1-66.069333-27.989334A318.506667 318.506667 0 0 1 480 330.666667c-165.930667 0-302.357333-126.293333-318.421333-288l418.688-0.021334a211.946667 211.946667 0 0 1 24.277333-64L96-21.333333v32c0 162.602667 101.056 301.589333 243.776 357.589333l4.096 1.578667A255.829333 255.829333 0 0 0 224 586.666667c0 141.376 114.624 256 256 256z m0-64a192 192 0 1 1 0-384 192 192 0 0 1 0 384zM789.333333 277.333333a192 192 0 1 0 0-384 192 192 0 0 0 0 384z m0-64a128 128 0 1 1 0-256 128 128 0 0 1 0 256z m44.8-48.64l41.130667-49.024L839.104 85.333333l36.16-30.336L834.133333 5.973333 789.333333 43.562667l-44.8-37.589334-41.130666 49.024L739.541333 85.333333l-36.138666 30.336L744.533333 164.693333l44.778667-37.568L834.133333 164.693333z"  horiz-adv-x="1024" />
      
      <glyph glyph-name="diannao" unicode="&#58917;" d="M581.12 142.72v-137.6h206.72a34.56 34.56 0 1 0 0-69.12H305.28a34.56 34.56 0 1 0 0 69.12H512v137.6H201.6A137.6 137.6 0 0 0 64 280.32V694.4A137.6 137.6 0 0 0 201.6 832h689.28a137.6 137.6 0 0 0 137.6-137.6v-414.08a137.6 137.6 0 0 0-137.6-137.6zM201.6 762.88a69.76 69.76 0 0 1-68.48-68.48v-414.08a69.76 69.76 0 0 1 69.12-69.12h688.64A69.76 69.76 0 0 1 960 280.32V694.4a69.76 69.76 0 0 1-69.12 69.12z"  horiz-adv-x="1028" />
      
      <glyph glyph-name="morentouxiang" unicode="&#58927;" d="M956.696128 383.24173c0-245.270123-199.054545-444.137403-444.615287-444.137403-245.538229 0-444.522166 198.868303-444.522166 444.137403 0 188.264804 117.181863 349.108073 282.675034 413.747255 50.002834 20.171412 104.631012 31.311123 161.858388 31.311123 57.297984 0 111.87909-11.128455 161.928996-31.311123C839.504032 732.349803 956.696128 571.505511 956.696128 383.24173L956.696128 383.24173M341.214289 476.908016c0-74.846662 38.349423-139.64855 94.097098-171.367973 23.119557-13.155624 49.151443-20.742417 76.769454-20.742417 26.64894 0 51.773154 7.096628 74.286913 19.355837 57.06467 31.113625 96.650247 96.707552 96.650247 172.742273 0 105.867166-76.664054 192.039781-170.936137 192.039781C417.867086 668.946774 341.214289 582.773136 341.214289 476.908016L341.214289 476.908016M513.886977-32.114163c129.883139 0 245.746984 59.732429 321.688583 153.211451-8.971325 73.739445-80.824817 136.51314-182.517917 167.825286-38.407752-34.55091-87.478354-55.340399-140.989081-55.340399-54.698786 0-104.770182 21.907962-143.55144 57.96211-98.921987-28.234041-171.379229-85.823668-188.368158-154.831344C255.507278 34.342412 376.965537-32.114163 513.886977-32.114163L513.886977-32.114163M513.886977-32.114163 513.886977-32.114163z"  horiz-adv-x="1024" />
      
      <glyph glyph-name="touxiang" unicode="&#59102;" d="M1024 384c0 281.6-230.4 512-512 512S0 665.6 0 384s230.4-512 512-512 512 230.4 512 512z m-512-448c-249.6 0-448 198.4-448 448s198.4 448 448 448 448-198.4 448-448-198.4-448-448-448zM627.2 390.4c44.8 38.4 76.8 89.6 76.8 153.6 0 108.8-83.2 192-192 192s-192-83.2-192-192c0-64 32-115.2 76.8-153.6-102.4-44.8-172.8-147.2-172.8-262.4 0-19.2 12.8-32 32-32s32 12.8 32 32c0 121.6 102.4 224 224 224s224-102.4 224-224c0-19.2 12.8-32 32-32s32 12.8 32 32c0 115.2-70.4 217.6-172.8 262.4zM512 416c-70.4 0-128 57.6-128 128s57.6 128 128 128 128-57.6 128-128-57.6-128-128-128z"  horiz-adv-x="1024" />
      
      <glyph glyph-name="zhanghubaobiao" unicode="&#58882;" d="M766.220457 529.922542q-2.033764-21.354518-11.694141-34.065541t-19.829196-19.829196q-12.202582-8.135055-26.438928-11.1857-8.135055-17.286991-17.286991-32.540218-8.135055-13.219464-16.77855-25.930487t-16.77855-19.829196q-9.151936-8.135055-17.286991-13.727905t-14.236346-11.694141-10.168818-14.744786-6.101291-20.846077q-2.033764-14.236346-4.575968-28.472691t-1.016882-28.472691 9.660377-27.96425 28.472691-24.913605l0-298.963257q0-8.135055 3.050645-15.761668t8.135055-12.711023q-48.810328-5.084409-94.57001-8.135055t-80.333664-3.050645q-29.489573 0-68.639523 2.542205t-80.842105 6.101291-82.367428 8.135055-74.232373 9.660377-56.945382 10.168818-29.489573 10.168818q-11.1857 8.135055-16.77855 49.82721t4.575968 107.789474q4.067527 25.422046 16.77855 41.692155t31.014896 27.96425 40.675273 18.812314 45.759682 13.727905 45.251241 14.236346 40.166832 18.812314q21.354518 13.219464 33.048659 25.930487t16.270109 24.913605 4.575968 25.422046-1.016882 28.472691q-2.033764 24.405164-16.270109 37.624628t-30.506455 27.455809q-8.135055 7.118173-16.270109 19.829196t-14.236346 25.930487q-7.118173 15.253227-14.236346 32.540218-11.1857 2.033764-21.354518 7.118173-9.151936 5.084409-18.303873 14.236346t-14.236346 26.438928q-6.101291 17.286991-2.542205 31.523337t10.677259 24.405164q8.135055 11.1857 20.337637 21.354518 1.016882 38.641509 8.135055 77.283019 6.101291 32.540218 17.795432 70.164846t33.048659 67.114201q19.320755 28.472691 43.217478 46.268123t48.810328 27.96425 49.82721 13.727905 48.301887 3.559086q29.489573 0 56.945382-6.609732t50.844091-17.795432 41.692155-25.422046 29.489573-28.472691q26.438928-32.540218 41.183714-72.19861t22.879841-74.232373q9.151936-40.675273 12.202582-81.350546 10.168818-5.084409 18.303873-13.219464 7.118173-7.118173 11.694141-18.303873t2.542205-28.472691zM922.820258 193.334657q16.270109 0 26.947368-11.1857t10.677259-26.438928l0-172.869911q0-8.135055-10.677259-25.930487t-24.913605-36.607746-28.472691-33.048659-22.3714-14.236346l-131.177756 0q-16.270109 0-26.947368 10.677259t-10.677259 26.947368l0 245.06852q0 15.253227 10.677259 26.438928t26.947368 11.1857l179.988083 0zM783.507448 130.287984q-8.135055 0-13.219464-6.609732t-5.084409-23.896723q0-12.202582 5.084409-21.862959t13.219464-9.660377l101.688183 0q8.135055 0 9.151936 11.694141t1.016882 19.829196-1.016882 19.320755-9.151936 11.1857l-101.688183 0zM879.09434-52.750745q8.135055 0 12.711023 12.202582t4.575968 20.337637-4.575968 17.286991-12.711023 9.151936l-97.620655 0q-8.135055 0-12.711023-10.168818t-4.575968-18.303873 4.575968-19.320755 12.711023-11.1857l97.620655 0z"  horiz-adv-x="1024" />
      
      <glyph glyph-name="chongzhi360" unicode="&#59068;" d="M672.256 358.4c-6.656 15.36-16.384 28.16-28.672 39.424-11.776 10.752-24.576 18.432-39.424 24.064-14.848 5.632-34.304 11.776-58.88 18.432v124.416c25.088-8.192 40.96-24.576 47.616-49.664 5.632-20.992 18.432-31.744 37.888-31.744 10.24 0 18.944 3.584 26.624 10.752 7.168 7.168 10.752 15.872 10.752 25.6 0 9.216-2.56 18.944-7.168 29.696-5.12 10.752-11.776 20.992-20.992 31.232-11.264 13.312-24.576 23.552-39.936 29.696-15.36 6.656-33.28 10.752-54.784 13.312v44.544c0 16.384-6.144 24.576-18.944 24.576s-18.944-8.192-18.944-25.088v-44.032c-41.472-3.584-72.704-16.384-94.72-38.4-22.016-22.016-32.768-50.176-32.768-84.48 0-26.112 5.632-47.616 16.896-64.512 11.264-16.896 25.6-29.696 43.52-38.912 17.92-9.216 40.448-17.408 67.072-24.576v-138.752c-13.312 3.584-24.064 9.216-32.256 16.384s-14.336 15.36-17.92 23.552c-4.096 8.704-8.704 20.992-13.824 37.376-2.56 7.68-6.656 13.312-12.8 17.408-6.144 4.096-13.824 6.144-22.528 6.144-11.264 0-20.48-3.584-28.16-11.264-7.68-7.68-11.264-16.384-11.264-25.6 0-12.8 2.56-26.112 8.192-39.424 5.632-13.312 14.336-26.624 26.112-38.912 11.776-12.288 26.112-23.040 43.52-31.232 17.408-8.192 37.888-13.824 60.928-16.384v-55.808c0-9.216 1.536-15.872 4.096-20.48 3.072-4.608 7.68-6.656 15.36-6.656 7.68 0 12.8 2.56 14.848 8.192 2.048 5.12 3.584 13.824 3.584 25.6v49.152c28.672 2.56 53.248 9.728 73.728 22.528 20.992 12.8 36.352 28.672 47.104 48.64 10.752 19.968 15.872 40.96 15.872 64 0.512 19.456-3.072 35.84-9.728 51.2zM507.392 451.584c-17.92 6.656-31.232 13.824-39.936 22.016-8.704 8.192-13.312 19.968-13.312 35.84 0 16.384 4.608 28.672 13.824 36.864 9.216 8.192 22.528 14.848 39.424 19.456v-114.176zM591.872 256c-10.752-12.288-26.624-20.48-46.592-24.064v131.072c20.992-6.656 36.352-14.848 47.104-24.064 10.752-9.728 15.872-23.040 15.872-40.448 0.512-15.872-5.12-30.208-16.384-42.496zM526.848 847.872c-247.808 0-449.536-201.728-449.536-449.536s201.728-449.536 449.536-449.536c247.808 0 449.536 201.728 449.536 449.536 0 247.808-201.728 449.536-449.536 449.536zM526.848 2.56c-218.112 0-395.776 177.664-395.776 395.776s177.664 395.776 395.776 395.776c218.112 0 395.776-177.664 395.776-395.776 0-218.624-177.664-395.776-395.776-395.776z"  horiz-adv-x="1024" />
      
      <glyph glyph-name="gerenzhongxin" unicode="&#59017;" d="M416.09769 581.973333m-314.026667 0a314.026667 314.026667 0 1 1 628.053333 0 314.026667 314.026667 0 1 1-628.053333 0ZM655.031023 102.741333c64.170667-45.056 102.4-117.418667 102.4-196.608 0-19.114667-15.018667-34.133333-34.133333-34.133333S689.164356-112.981333 689.164356-93.866667C689.164356 0.341333 612.70569 76.8 518.49769 76.8S347.831023 0.341333 347.831023-93.866667c0-19.114667-15.018667-34.133333-34.133333-34.133333S279.564356-112.981333 279.564356-93.866667c0 76.458667 36.864 148.821333 98.304 192.512C164.876356 172.373333 51.55369 405.845333 125.28169 620.202667 199.00969 833.194667 431.116356 946.517333 645.47369 872.789333s327.68-307.2 253.952-520.192c-40.96-116.053333-129.706667-207.530667-244.394667-249.856zM511.671023 827.733333C323.255023 827.733333 170.33769 674.816 170.33769 486.4s152.917333-341.333333 341.333333-341.333333 341.333333 152.917333 341.333333 341.333333S700.087023 827.733333 511.671023 827.733333zM640.012356 321.194667c-75.093333-47.786667-170.666667-46.421333-245.76 2.730666-16.384 10.922667-20.48 32.768-10.922666 49.152 9.557333 16.384 28.672 21.845333 45.056 12.288l1.365333-1.365333c53.248-34.133333 121.514667-35.498667 174.762667-1.365333 15.018667 9.557333 35.498667 5.461333 45.056-10.922667l1.365333-1.365333c9.557333-17.749333 4.096-39.594667-10.922667-49.152z"  horiz-adv-x="1024" />
      
      <glyph glyph-name="zhanghuyue" unicode="&#58943;" d="M681.30074232 553.50948801c34.419875 37.550966 75.079805 93.855288 75.079804 153.2907 0 34.419875-9.38221 62.566504-31.27772 84.473079C684.43183332 831.94426001 612.47205632 831.94426001 531.14113332 831.94426001h-59.424349c-75.079805 0-137.646308 3.131091-178.317302-37.539902-21.939766-21.89551-31.310912-50.064267-31.310911-87.60417 0-84.462014 75.090868-159.541819 109.532871-187.699511 12.513301-12.513301 34.408811-9.38221 43.802084 3.131091 12.502237 12.513301 9.38221 34.408811-3.131091 43.791021-53.184294 46.933176-87.593105 100.106406-87.593105 140.777399 0 31.288784 9.38221 40.670993 12.513301 43.802085 21.89551 18.808675 75.079805 18.808675 134.515217 18.808675h65.697595c65.697595 0 128.264099 0 150.159609-21.89551 0-3.131091 9.393274-12.513301 9.393273-40.670994 0-37.539902-34.419875-90.724196-90.724196-137.646308-9.38221-6.262182-12.513301-18.808675-9.38221-28.157693a48.681276 48.681276 0 0 1 18.808675-25.026601c115.750798-43.791021 237.752714-162.639718 237.752714-325.34582 0-153.2907-93.844224-209.606086-344.08811-209.606085s-344.088111 56.315385-344.088111 209.606085c0 93.844224 43.802085 187.699511 122.01298 256.528198 12.36947 12.469045 15.489497 31.233464 2.998324 43.779956s-31.288784 15.644392-43.802085 3.131091C155.74211032 412.76528101 102.55781632 303.27666501 102.55781632 190.65695801000004c0-272.172589 275.30368-272.172589 406.687806-272.172589s406.69887 0 406.698871 272.172589c3.120027 150.159609-93.855288 290.981264-234.632687 362.896786z m0 0M637.50972132 400.25198001c12.502237 12.513301 12.502237 31.288784 0 43.802084s-31.288784 12.513301-43.802085 0l-78.210895-75.112996-78.210896 75.079805c-12.513301 12.513301-31.288784 12.513301-43.802085 0s-12.513301-31.288784 0-43.802085l87.60417-84.462014v-18.808675h-62.577568c-18.808675 0-31.27772-12.513301-31.27772-31.27772s12.513301-31.288784 31.27772-31.288784h62.577568v-31.27772h-62.577568c-18.808675 0-31.27772-12.513301-31.27772-31.288783s12.513301-31.27772 31.27772-31.27772h62.577568v-65.675467c0-18.808675 12.513301-31.27772 31.277719-31.27772s31.266656 12.513301 31.266656 31.27772v65.708658h62.566504c18.808675 0 31.288784 12.502237 31.288784 31.27772s-12.524365 31.288784-31.288784 31.288784h-62.566504v31.27772h62.566504c18.808675 0 31.288784 12.513301 31.288784 31.288784s-12.524365 31.27772-31.288784 31.27772h-62.566504v12.546492z m0 0"  horiz-adv-x="1024" />
      
      <glyph glyph-name="anquan" unicode="&#59563;" d="M512 810.666667c72.533333 0 139.808-8.362667 200.202667-22.325334 21.258667-4.906667 40.192-10.208 56.586666-15.52 9.301333-3.018667 16.106667-5.472 20.245334-7.114666C831.733333 751.093333 864 703.893333 864 657.376v-385.034667c0-43.402667-25.130667-95.52-58.837333-121.109333l-227.626667-172.810667c-36.992-28.085333-94.005333-28.149333-131.072 0l-227.626667 172.810667C185.28 176.714667 160 229.088 160 272.341333V657.376c0 46.826667 32.170667 94.218667 75.157333 108.405333 4.16 1.642667 10.901333 4.074667 20.053334 7.04a684.437333 684.437333 0 0 0 56.586666 15.52C372.192 802.314667 439.466667 810.666667 512 810.666667z m0-64c-67.456 0-129.930667-7.765333-185.781333-20.682667-19.424-4.48-36.586667-9.28-51.274667-14.048-5.056-1.632-9.418667-3.146667-13.056-4.48-2.058667-0.746667-3.349333-1.248-3.84-1.450667a32 32 0 0 0-2.485333-0.885333c-16.074667-5.034667-31.562667-27.626667-31.562667-47.744v-385.034667c0-23.498667 16.128-56.917333 33.536-70.133333l227.626667-172.810667c14.176-10.773333 39.530667-10.741333 53.674666 0l227.626667 172.810667C784 215.530667 800 248.693333 800 272.341333V657.376c0 19.84-15.626667 42.506667-32 47.882667l-2.048 0.746666a143.829333 143.829333 0 0 1-3.84 1.450667c-3.637333 1.333333-8 2.848-13.056 4.48a620.778667 620.778667 0 0 1-51.274667 14.048C641.930667 738.901333 579.456 746.666667 512 746.666667z m137.354667-190.72a32 32 0 0 0 45.290666-45.226667l-213.013333-213.333333a32 32 0 0 0-45.226667-0.064l-106.986666 106.549333a32 32 0 1 0 45.162666 45.344l84.341334-83.989333z"  horiz-adv-x="1024" />
      
      <glyph glyph-name="yanjing" unicode="&#59583;" d="M512 64c-156.448 0-296.021333 98.730667-418.410667 291.605333a52.938667 52.938667 0 0 0 0 56.789334C215.978667 605.269333 355.552 704 512 704c156.448 0 296.021333-98.730667 418.410667-291.605333a52.938667 52.938667 0 0 0 0-56.789334C808.021333 162.730667 668.448 64 512 64z m0 576c-129.514667 0-249.461333-83.850667-360.117333-256C262.538667 211.850667 382.485333 128 512 128c129.514667 0 249.461333 83.850667 360.117333 256C761.461333 556.149333 641.514667 640 512 640z m0-405.333333c-83.210667 0-150.666667 66.858667-150.666667 149.333333S428.789333 533.333333 512 533.333333s150.666667-66.858667 150.666667-149.333333S595.210667 234.666667 512 234.666667z m0 64c47.552 0 86.101333 38.208 86.101333 85.333333S559.552 469.333333 512 469.333333c-47.552 0-86.101333-38.208-86.101333-85.333333s38.549333-85.333333 86.101333-85.333333z"  horiz-adv-x="1024" />
      
      <glyph glyph-name="yanjing1" unicode="&#59591;" d="M512 704c156.448 0 296.021333-98.730667 418.410667-291.605333a52.938667 52.938667 0 0 0 0-56.789334C808.021333 162.730667 668.448 64 512 64c-156.448 0-296.021333 98.730667-418.410667 291.605333a52.938667 52.938667 0 0 0 0 56.789334C215.978667 605.269333 355.552 704 512 704z m0-128c-106.037333 0-192-85.962667-192-192s85.962667-192 192-192 192 85.962667 192 192-85.962667 192-192 192z m0-320c70.688 0 128 57.312 128 128s-57.312 128-128 128-128-57.312-128-128 57.312-128 128-128z"  horiz-adv-x="1024" />
      
      <glyph glyph-name="baogao" unicode="&#58925;" d="M728.3-32.200000000000045H297.9c-84.2 0-152.8 68.5-152.8 152.8V566.9c0 84.2 68.5 152.8 152.8 152.8H365v-60h-67.1c-51.2 0-92.8-41.6-92.8-92.8v-446.3c0-51.2 41.6-92.8 92.8-92.8h430.4c51.2 0 92.8 41.6 92.8 92.8V566.9c0 51.2-41.6 92.8-92.8 92.8H661v60h67.3c84.2 0 152.8-68.5 152.8-152.8v-446.3c0-84.3-68.6-152.8-152.8-152.8zM593.6 587.9h-161c-49.3 0-89.4 40.1-89.4 89.4v31.4c0 49.3 40.1 89.4 89.4 89.4h161c49.3 0 89.4-40.1 89.4-89.4v-31.4c0-49.3-40.1-89.4-89.4-89.4zM432.6 738c-16.2 0-29.4-13.2-29.4-29.4v-31.4c0-16.2 13.2-29.4 29.4-29.4h161c16.2 0 29.4 13.2 29.4 29.4v31.4c0 16.2-13.2 29.4-29.4 29.4h-161zM511.3 418.9H320.1c-16.6 0-30 13.4-30 30s13.4 30 30 30h191.3c16.6 0 30-13.4 30-30s-13.5-30-30.1-30zM576.1 291.9h-256c-16.6 0-30 13.4-30 30s13.4 30 30 30h256.1c16.6 0 30-13.4 30-30s-13.5-30-30.1-30zM640.1 163.89999999999998h-320c-16.6 0-30 13.4-30 30s13.4 30 30 30h320.1c16.6 0 30-13.4 30-30s-13.5-30-30.1-30z"  horiz-adv-x="1024" />
      
      <glyph glyph-name="zhanghuxinxi" unicode="&#58894;" d="M803.474286 254.610286a299.812571 299.812571 0 0 0 189.659428-253.513143 36.571429 36.571429 0 0 0-72.850285-6.436572C909.897143 111.177143 813.494857 201.142857 697.782857 201.142857c-115.785143 0-212.260571-89.965714-222.500571-206.555428a36.571429 36.571429 0 1 0-72.850286 6.436571 299.666286 299.666286 0 0 0 197.485714 256.512A156.818286 156.818286 0 0 0 548.571429 373.76C548.571429 460.141714 617.764571 530.285714 703.268571 530.285714c85.577143 0 154.770286-70.144 154.770286-156.452571 0-47.689143-21.211429-90.477714-54.564571-119.222857zM292.571429-18.285714a36.571429 36.571429 0 1 0 0-73.142857h-58.514286c-109.787429 0-197.485714 95.670857-197.485714 212.114285V647.314286C36.571429 763.757714 124.269714 859.428571 234.057143 859.428571h482.742857c109.787429 0 197.485714-95.670857 197.485714-212.114285a36.571429 36.571429 0 1 0-73.142857 0c0 77.458286-56.393143 138.971429-124.342857 138.971428H234.057143c-67.949714 0-124.342857-61.513143-124.342857-138.971428v-526.628572c0-77.458286 56.393143-138.971429 124.342857-138.971428H292.571429zM182.857143 603.428571h292.571428a36.571429 36.571429 0 0 0 0-73.142857h-292.571428a36.571429 36.571429 0 0 0 0 73.142857z m0-219.428571h146.285714a36.571429 36.571429 0 0 0 0-73.142857h-146.285714a36.571429 36.571429 0 0 0 0 73.142857z m520.411428-93.403429c44.982857 0 81.627429 37.156571 81.627429 83.236572 0 46.08-36.644571 83.309714-81.627429 83.309714C658.358857 457.142857 621.714286 419.986286 621.714286 373.833143c0-46.08 36.644571-83.236571 81.554285-83.236572z"  horiz-adv-x="1024" />
      
      <glyph glyph-name="a-fenzhi1" unicode="&#60409;" d="M738.986667 27.306667c0-47.786667 37.546667-85.333333 85.333333-85.333334s85.333333 37.546667 85.333333 85.333334-37.546667 85.333333-85.333333 85.333333-85.333333-39.253333-85.333333-85.333333zM824.32-83.626667c-61.44 0-110.933333 49.493333-110.933333 110.933334s49.493333 110.933333 110.933333 110.933333 110.933333-49.493333 110.933333-110.933333-49.493333-110.933333-110.933333-110.933334z m0 170.666667c-32.426667 0-59.733333-27.306667-59.733333-59.733333s27.306667-59.733333 59.733333-59.733334 59.733333 27.306667 59.733333 59.733334-27.306667 59.733333-59.733333 59.733333zM269.653333 27.306667c0-47.786667 37.546667-85.333333 85.333334-85.333334s85.333333 37.546667 85.333333 85.333334-37.546667 85.333333-85.333333 85.333333-85.333333-39.253333-85.333334-85.333333zM354.986667-83.626667c-61.44 0-110.933333 49.493333-110.933334 110.933334s49.493333 110.933333 110.933334 110.933333 110.933333-49.493333 110.933333-110.933333-49.493333-110.933333-110.933333-110.933334z m0 170.666667c-32.426667 0-59.733333-27.306667-59.733334-59.733333s27.306667-59.733333 59.733334-59.733334 59.733333 27.306667 59.733333 59.733334-27.306667 59.733333-59.733333 59.733333zM269.653333 709.973333c0-47.786667 37.546667-85.333333 85.333334-85.333333s85.333333 37.546667 85.333333 85.333333-37.546667 85.333333-85.333333 85.333334-85.333333-39.253333-85.333334-85.333334zM354.986667 599.04c-61.44 0-110.933333 49.493333-110.933334 110.933333s49.493333 110.933333 110.933334 110.933334 110.933333-49.493333 110.933333-110.933334-49.493333-110.933333-110.933333-110.933333z m0 170.666667c-32.426667 0-59.733333-27.306667-59.733334-59.733334s27.306667-59.733333 59.733334-59.733333 59.733333 27.306667 59.733333 59.733333-27.306667 59.733333-59.733333 59.733334zM824.32 87.04c-13.653333 0-25.6 11.946667-25.6 25.6v85.333333c0 68.266667-110.933333 114.346667-218.453333 157.013334-75.093333 30.72-150.186667 61.44-199.68 104.106666V110.933333c0-13.653333-11.946667-25.6-25.6-25.6s-25.6 11.946667-25.6 25.6V622.933333c0 13.653333 11.946667 25.6 25.6 25.6s25.6-11.946667 25.6-25.6v-63.146666c0-68.266667 110.933333-114.346667 218.453333-157.013334 122.88-51.2 250.88-102.4 250.88-204.8v-85.333333c0-13.653333-11.946667-25.6-25.6-25.6z"  horiz-adv-x="1024" />
      
      <glyph glyph-name="kuanggong" unicode="&#58887;" d="M440.519111-46.279111l175.701333 193.365333-77.653333 85.447111 34.190222 37.632 94.776889-104.305777 17.095111-18.830223-17.066666-18.773333-199.907556-220.017778-7.111111-7.793778H163.470222c-28.273778 0-55.352889 12.401778-75.292444 34.417778-20.024889 21.959111-31.288889 51.768889-31.288889 82.858667V344.689778l7.111111 7.623111 199.822222 220.103111 17.095111 18.830222 17.095111-18.830222 94.805334-104.391111-34.161778-37.603556-77.596444 85.532445-175.729778-193.365334v-304.867555c0-16.981333 6.172444-33.28 17.095111-45.226667 10.865778-12.032 25.6-18.773333 41.016889-18.801778h277.048889v0.028445z m413.582222 570.538667c12.970667-11.918222 32.284444-9.984 43.121778 4.295111a36.352 36.352 0 0 1 0 43.207111L698.311111 790.641778c-12.999111 11.946667-32.312889 10.012444-43.150222-4.266667a36.352 36.352 0 0 1 0-43.207111l60.416-66.474667 17.265778-19.000889-17.265778-19.000888-367.36-404.650667a36.323556 36.323556 0 0 1 0-47.502222c11.946667-13.056 31.203556-13.056 43.150222 0L758.897778 591.075556l17.265778 19.000888 17.265777-19.000888 60.416-66.474667 0.199111-0.341333z m34.190223-48.355556c-20.878222 0.028444-40.874667 9.159111-55.608889 25.372444l-42.780445 46.933334L442.510222 167.537778c-30.805333-33.763556-80.696889-33.763556-111.502222 0-30.72 33.678222-30.72 88.234667 0 121.912889L678.314667 670.151111l-42.780445 46.933333c-32.312889 31.857778-34.929778 86.471111-5.831111 121.912889C658.830222 874.382222 708.636444 877.283556 740.977778 845.368889c2.048-1.991111 3.982222-4.152889 5.831111-6.371556l197.233778-216.177777c30.776889-33.735111 30.805333-88.462222 0.028444-122.197334-14.762667-16.184889-34.759111-25.315556-55.665778-25.315555l-0.085333 0.597333z"  horiz-adv-x="1024" />
      
      <glyph glyph-name="suanli" unicode="&#59075;" d="M459.392 732.8c269.952 30.656 498.688-181.376 498.112-446.272a447.296 447.296 0 0 0-89.6-270.464 40.32 40.32 0 0 0-32.256-15.616H186.176a39.488 39.488 0 0 0-32.32 15.616 449.6 449.6 0 0 0-85.696 329.984c26.176 202.048 190.336 363.968 391.232 386.816z m92.416-81.216v-79.616c0-27.264-13.376-40.576-40.64-40.576-27.264 0-40.64 13.312-40.64 40.64V651.52a365.888 365.888 0 0 1-187.52-78.464l55.68-56.192a40.64 40.64 0 0 0 0-57.92 40.96 40.96 0 0 0-57.344 0l-55.68 56.256A366.144 366.144 0 0 1 147.84 326.592h78.976c27.328 0 40.64-13.376 40.64-40.64 0-27.264-13.312-40.64-40.64-40.64H147.84c6.656-58.432 26.688-114.624 59.52-163.584h607.744a356.352 356.352 0 0 1 59.008 164.16h-79.04c-27.264 0-40.64 13.376-40.64 40.64 0 27.264 13.376 40.576 40.64 40.576h79.04a374.784 374.784 0 0 1-76.288 186.432c-0.512 0.64-1.088 1.728-1.664 2.24l-55.68-56.192a40.96 40.96 0 0 0-57.28 0 40.64 40.64 0 0 0 0 57.856l56.192 56.256a355.008 355.008 0 0 1-187.52 77.888z m-162.56-194.24l156.992-153.024c3.84-3.904 7.232-7.808 9.984-12.224a58.88 58.88 0 0 0-21.12-80.192l-6.144-3.84a53.504 53.504 0 0 0-15.552-6.144 58.56 58.56 0 0 0-71.232 42.88l-52.864 212.544z"  horiz-adv-x="1024" />
      
      <glyph glyph-name="kuanggong1" unicode="&#58880;" d="M271.675676-100.49853800000005c0-3.636212-7.02165-6.603694-15.673325-6.603695s-15.673325 2.967483-15.673325 6.603695V199.760582c0 3.636212 7.02165 6.603694 15.673325 6.603694s15.673325-2.967483 15.673325-6.603694v-300.25912zM355.266746-99.59993399999996c0-4.137758-7.02165-7.502298-15.673326-7.502299s-15.673325 3.343643-15.673325 7.502299V240.636615c0 4.137758 7.02165 7.502298 15.673325 7.502298s15.673325-3.343643 15.673326-7.502298V-99.57903699999997zM985.271735-4.619582000000037a78.366627 78.366627 0 0 0-69.2552-114.833231l-827.091833-1.044889A78.366627 78.366627 0 0 0 19.439626-5.706266000000028C122.6328 190.94172400000002 284.360621 289.95534499999997 502.533311 289.95534499999997c218.130895 0 379.733329-98.637461 482.738424-294.574927z m-27.731337-14.586642C859.926927 166.47043900000006 708.961456 258.608694 502.533311 258.608694c-206.449043 0-357.519002-92.493518-455.341451-278.880704a47.019976 47.019976 0 0 1 41.711944-68.879041l827.070935 1.044889a47.019976 47.019976 0 0 1 41.565659 68.899938zM496.326675 310.853113c122.33553 0 221.808902 97.759755 224.588304 219.426556H271.73837C274.517773 408.612868 373.991145 310.853113 496.326675 310.853113z m255.119942 250.773207l0.626933-15.004597c0.167182-3.698905 0.250773-7.39781 0.250774-11.117612 0-141.373396-114.624253-255.997649-255.997649-255.997649S240.329026 394.130715 240.329026 535.504111c0 3.719803 0.083591 7.418707 0.229875 11.117612l0.647831 15.004597h510.239885zM601.212568 739.257342a67.917744 67.917744 0 0 0-67.917743 67.917743V862.157111a268.954265 268.954265 0 0 1-73.142186 0V807.175085a67.917744 67.917744 0 0 0-135.626509-5.621499A265.944986 265.944986 0 0 1 231.551963 624.319622h530.385333a265.944986 265.944986 0 0 1-93.015962 177.233964 67.917744 67.917744 0 0 0-67.708766-62.296244z m60.958788 106.578613a297.500615 297.500615 0 0 0 132.136582-236.625419l0.585137-16.237565H198.533491l0.585138 16.237565A297.500615 297.500615 0 0 0 331.276109 845.835955a15.673325 15.673325 0 0 0 24.387694-13.019309V807.175085a36.571093 36.571093 0 0 1 73.142186 0V875.489886a15.673325 15.673325 0 0 0 12.789433 15.401655 299.339618 299.339618 0 0 0 110.25662 0 15.673325 15.673325 0 0 0 12.789434-15.401655V807.175085a36.571093 36.571093 0 0 1 73.142185 0V832.816646a15.673325 15.673325 0 0 0 24.387695 13.019309zM151.513515 592.9729709999999a15.673325 15.673325 0 1 0 0 31.346651h711.757055a15.673325 15.673325 0 1 0 0-31.346651H151.513515zM773.222091-100.49853800000005c0-3.636212-7.02165-6.603694-15.673326-6.603695s-15.673325 2.967483-15.673325 6.603695V199.760582c0 3.636212 7.02165 6.603694 15.673325 6.603694s15.673325-2.967483 15.673326-6.603694v-300.25912zM689.631022-99.59993399999996c0-4.137758-7.02165-7.502298-15.673326-7.502299s-15.673325 3.343643-15.673325 7.502299V240.636615c0 4.137758 7.02165 7.502298 15.673325 7.502298s15.673325-3.343643 15.673326-7.502298V-99.57903699999997zM444.082256 363.097531a15.673325 15.673325 0 1 0 0 31.346651h106.557716a15.673325 15.673325 0 1 0 0-31.346651H444.082256z"  horiz-adv-x="1024" />
      
      <glyph glyph-name="kuanggong2" unicode="&#58895;" d="M354.2016 683.5712a44.288 44.288 0 0 0 27.2896-10.1376l31.488-31.488 31.232 31.744c50.7392 51.712 96.2048 93.44 136.2944 125.3376l91.4432-91.4432L515.584 551.2192l17.152-29.3888c3.328-5.6832 6.4-14.848 7.3216-22.4256 0.2048-1.6384 0.256-3.072 0.256-4.1984l-52.736-52.736 403.3536-403.3024-49.92-49.92-68.096 68.096a44.1344 44.1344 0 1 1-62.464-62.464l74.3424-74.2912a79.4624 79.4624 0 0 1 112.384 0l62.464 62.4128a79.4624 79.4624 0 0 1 0 112.3328L612.0448 442.88c19.6096 24.8832 20.7872 59.2896 11.0592 91.136l129.9456 129.8944a61.7984 61.7984 0 0 1 0 87.3984L626.4832 877.8752A61.7984 61.7984 0 0 1 545.6896 883.712c-41.5744-31.232-87.8592-72.0384-139.1104-122.624-37.7344 16.5888-83.8144 15.9744-112.4864-12.6976L144.2816 598.528c-34.7136-34.7136-28.2624-94.9248 0-134.9632C56.6272 339.456 25.6 218.3168 25.6 50.688a44.1344 44.1344 0 0 1 88.2688 0c0 162.816 30.7712 270.6944 122.4192 388.8128l23.8592 30.72-40.96 40.96a44.288 44.288 0 0 0-10.1376 27.3408L354.2016 683.52zM413.8496-125.0304a220.672 220.672 0 1 1 0 441.344 220.672 220.672 0 0 1 0-441.344z m0 88.2688a132.4032 132.4032 0 1 0 0 264.8064 132.4032 132.4032 0 0 0 0-264.8064z"  horiz-adv-x="1024" />
      
      <glyph glyph-name="suanli1" unicode="&#58881;" d="M636.507549 601.5188929999999h-249.290762a84.114318 84.114318 0 0 1-89.025107-89.025107v-258.191568c0-44.521079 35.620274-80.141353 89.025107-80.141353h258.191568c44.521079 0 80.141353 35.620274 80.141353 89.025107V512.4767340000001a84.114318 84.114318 0 0 1-89.042159 89.042159z m-17.801611-106.84377v-222.571294H405.001347V494.675123h213.670488zM973.391105 342.74757999999997a45.475955 45.475955 0 1 1 0 90.934858h-121.252162v75.776207h121.252162a45.475955 45.475955 0 1 1 0 90.934859h-121.252162v7.5708a127.731676 127.731676 0 0 1-128.840014 128.840014h-7.5708V850.485679A48.903277 48.903277 0 0 1 670.252174 895.961634c-22.729452 0-37.888104-15.158652-37.888103-45.475955v-121.252162h-75.793259V850.485679A48.903277 48.903277 0 0 1 511.094857 895.961634a43.685563 43.685563 0 0 1-45.475955-45.475955v-121.252162h-75.776207V850.485679a45.475955 45.475955 0 0 1-90.934858 0v-121.252162h-7.570801a127.731676 127.731676 0 0 1-128.840013-128.840013v-7.5708H48.832712a45.475955 45.475955 0 0 1 0-90.934859h121.252162v-75.81031H48.832712A35.313349 35.313349 0 0 1 3.356757 388.189432a48.903277 48.903277 0 0 1 45.475955-45.475955h121.252162v-75.776207H48.832712a45.475955 45.475955 0 1 1 0-90.934859h121.252162v-7.5708a127.731676 127.731676 0 0 1 128.840014-128.840014h7.5708v-121.252162a45.475955 45.475955 0 0 1 90.934859 0v121.269214h75.810309v-121.252162a45.475955 45.475955 0 1 1 90.934859 0v121.252162h75.776207v-121.252162a45.475955 45.475955 0 1 1 90.934859 0v121.252162h7.5708c68.205407 0 111.788662 53.046755 111.788662 128.840013v15.158652h121.252162a45.475955 45.475955 0 0 1 0 90.934859h-119.359462v68.205407z m-204.616221 265.250827v-439.566796a35.807839 35.807839 0 0 0-37.888103-37.888103H291.337036a35.807839 35.807839 0 0 0-37.888103 37.888103V607.981355a35.807839 35.807839 0 0 0 37.888103 37.888104h439.549745a35.807839 35.807839 0 0 0 37.888103-37.888104z"  horiz-adv-x="1024" />
      
      <glyph glyph-name="shishisuanli" unicode="&#58998;" d="M512 896a511.906909 511.906909 0 0 0 361.984-873.984c-8.610909-8.610909-17.477818-16.942545-26.554182-24.901818l-39.470545 45.521454a451.560727 451.560727 0 1 1-591.685818 0l-39.470546-45.521454c-9.192727 7.959273-18.129455 16.290909-26.577454 24.901818A512 512 0 0 0 512 896zM182.644364 419.444364A331.217455 331.217455 0 0 0 686.871273 665.344L642.792727 621.381818a270.941091 270.941091 0 0 1-400.546909-208.337454l-59.764363 6.376727h0.162909z m610.909091 139.450181a329.355636 329.355636 0 0 0 47.802181-139.450181l-59.764363-6.376728a268.334545 268.334545 0 0 1-32.116364 101.888l44.078546 43.938909zM242.408727 354.909091a268.194909 268.194909 0 0 1 21.643637-80.477091l-55.063273-24.203636a329.099636 329.099636 0 0 0-26.577455 98.536727l59.764364 6.306909 0.232727-0.162909z m50.618182-130.792727a269.847273 269.847273 0 0 1 41.378909-45.079273l-39.424-45.474909a357.073455 357.073455 0 0 0-17.268363 15.918545c-12.101818 12.148364-23.272727 25.227636-33.349819 39.098182l48.500364 35.560727h0.162909z m396.497455-44.986182c4.794182 4.189091 9.518545 8.610909 14.08 13.242182 9.937455 9.890909 19.083636 20.549818 27.368727 31.883636l48.453818-35.560727a336.058182 336.058182 0 0 0-33.210182-38.842182c-5.515636-5.515636-11.310545-10.821818-17.314909-15.918546l-39.377454 45.47491v-0.279273z m70.4 95.301818a268.148364 268.148364 0 0 1 21.620363 80.64l59.764364-6.283636a325.003636 325.003636 0 0 0-26.577455-98.513455l-54.807272 24.157091z m-208.989091 191.069091l173.009454 173.009454 42.589091-42.58909-173.009454-173.032728-42.589091 42.589091zM512 499.688727a115.688727 115.688727 0 1 0-44.171636-8.843636 115.2 115.2 0 0 0 44.288 8.750545L512 499.712z m39.214545-76.474182a55.482182 55.482182 0 1 1-78.42909-78.498909 55.482182 55.482182 0 0 1 78.42909 78.498909zM673.233455 81.454545a48.477091 48.477091 0 0 1-42.961455-70.842181l-78.848-77.940364a27.648 27.648 0 0 1-13.963636 3.653818c-3.188364 0-6.144-0.698182-8.890182-1.582545l-31.767273 43.403636c0.232727 1.629091 0.232727 2.978909 0.232727 4.584727 0 15.755636-12.8 28.555636-28.578909 28.555637-15.755636 0-28.788364-12.8-28.788363-28.555637v-0.465454l-45.940364-44.334546h-37.934545a29.509818 29.509818 0 0 1-24.436364 13.963637 28.811636 28.811636 0 0 1 0-57.623273c10.496 0 20.107636 5.725091 25.367273 14.871273h49.338181l49.82691 48.453818c4.119273-2.071273 8.471273-3.211636 13.265454-3.211636 3.188364 0 6.4 0.698182 9.146182 1.605818l31.301818-43.194182c-0.232727-1.605818-0.465455-3.211636-0.465454-5.026909 0-15.778909 12.8-28.578909 28.578909-28.578909 15.546182 0 28.322909 12.334545 28.555636 27.880727l84.107636 83.432727a48.174545 48.174545 0 0 1 65.349819 20.107637 49.570909 49.570909 0 0 1 5.72509 22.621091c0 26.530909-21.480727 48.221091-48.22109 48.22109z m0.698181-68.794181a20.782545 20.782545 0 0 0-20.573091 20.573091 20.340364 20.340364 0 0 0 20.549819 20.57309c11.426909 0 20.573091-9.378909 20.573091-20.57309a20.782545 20.782545 0 0 0-20.573091-20.573091z"  horiz-adv-x="1024" />
      
    </font>
</defs>
</svg>
